Mei Hoom Moosa (Malayalam) [2022] (Think Music)

[CD Quality] [FLAC] Mei Hoom Moosa (Malayalam) [2022] (Think Music) 2022

No permission to download
Mei Hoom Moosa (Malayalam) [2022] (Think Music)

Cover.jpg

Album / Movie : Mei Hoom Moosa (Malayalam) - (Original Motion Picture Soundtrack) - EP
Music / Composer : Sreenath Sivasankaran
Year Released: 2022

Label: © 2022 Think Music.
Language: Malayalam
Ripper Note: Sreenath Sivasankaran Musical 🔥. Enjoy True UnTOUCHED CDQ 🔥

Tracklist :
01 - Kisa Thunniya - Bijibal
02 - Aaramba Thenimba - Sreenath Sivasankaran
03 - Thengolappon Maravil - Sreenath Sivasankaran
04 - Saurang Milke - Sreenath Sivasankaran


Spek :

01 - Kisa Thunniya.flac.png

Quality Check log :
Code:
foobar2000 1.6.11 / Dynamic Range Meter 1.1.1
log date: 2022-10-07 21:33:04

--------------------------------------------------------------------------------
Analyzed: Bijibal / Mei Hoom Moosa (1)
          Sreenath Sivasankaran / Mei Hoom Moosa (2-4)
--------------------------------------------------------------------------------

DR         Peak         RMS     Duration Track
--------------------------------------------------------------------------------
DR6       -1.81 dB    -9.96 dB      4:00 01-Kisa Thunniya
DR8        0.00 dB   -10.16 dB      3:52 02-Aaramba Thenimba
DR9        0.00 dB   -10.36 dB      3:11 03-Thengolappon Maravil
DR6       -1.78 dB    -9.35 dB      4:05 04-Saurang Milke
--------------------------------------------------------------------------------

Number of tracks:  4
Official DR value: DR7

Samplerate:        44100 Hz
Channels:          2
Bits per sample:   16
Bitrate:           895 kbps
Codec:             FLAC
================================================================================
~Desihires.com.