Thiruchitrambalam incl. OST (Tamil) [2022] (Sun Pictures)

[Hi-Res] [24-Bit 48.0 kHz] Thiruchitrambalam incl. OST (Tamil) [2022] (Sun Pictures) 2022

No permission to download
Thiruchitrambalam incl. OST (Tamil) [2022] (Sun Pictures)

Cover.jpg

Album / Movie : Thiruchitrambalam
Music / Composer : Anirudh Ravichander
Year Released: 2022

Label: © 2022 Sun Pictures.
Language: Tamil
Ripper Note: Anirudh Musical 🔥. DnA 🔥. Enjoy UnTOUCHED HiRES 🔥.

Tracklist :
1 - Thaai Kelavi - Dhanush
2 - Megham Karukatha - Dhanush
3 - Life of Pazham - Anirudh Ravichander
4 - Thenmozhi - Santhosh Narayanan
5 - Mayakkama Kalakkama - Dhanush
6 - Kanneer Sindha - Dhanush
7 - Pazham and Anusha (Instrumental) - Anirudh Ravichander
8 - Thiruchitrambalam Title Theme (Instrumental) - Anirudh Ravichander
9 - Text Message (Instrumental) - Anirudh Ravichander
10 - Coffee Shop (Instrumental) - Anirudh Ravichander
11 - Anusha Rejects Pazham (Instrumental) - Anirudh Ravichander
12 - Senior Pazham (Instrumental) - Anirudh Ravichander
13 - Shobana Insulted (Instrumental) - Anirudh Ravichander
14 - Mothers Death (Instrumental) - Anirudh Ravichander
15 - Fathers Stroke (Instrumental) - Anirudh Ravichander
16 - Thiru Helps his Dad (Instrumental) - Anirudh Ravichander
17 - Dysfunctional Home (Instrumental) - Anirudh Ravichander
18 - Pazham and Ranjini (Instrumental) - Anirudh Ravichander
19 - Pazham Proposes to Shobana (Instrumental) - Anirudh Ravichander
20 - What is Love (Instrumental) - Anirudh Ravichander
21 - Shobana Leaves (Instrumental) - Anirudh Ravichander
22 - Pazham and Shobana Separated (Instrumental) - Anirudh Ravichander
23 - Pazham Rejected (Instrumental) - Anirudh Ravichander
24 - Pazham Realises her Love (Instrumental) - Anirudh Ravichander
25 - Thaangaadha Baaram (Instrumental) - Anirudh Ravichander
26 - Soulmates Unite (Instrumental) - Anirudh Ravichander


Spek :

24. Pazham Realises her Love (Instrumental).flac.png

Quality Check log :
Code:
foobar2000 1.6.4 / Dynamic Range Meter 1.1.1
log date: 2022-09-28 19:56:33

--------------------------------------------------------------------------------
Analyzed: Anirudh Ravichander / Thiruchitrambalam (Original Motion Picture Soundtrack) (1-21)
          Dhanush / Thiruchitrambalam (Original Motion Picture Soundtrack) (22-25)
          Santhosh Narayanan / Thiruchitrambalam (Original Motion Picture Soundtrack) (26)
--------------------------------------------------------------------------------

DR         Peak         RMS     Duration Track
--------------------------------------------------------------------------------
DR5       -0.97 dB    -7.97 dB      3:55 03-Life of Pazham
DR6       -1.01 dB    -8.65 dB      0:44 07-Pazham and Anusha (Instrumental)
DR6       -1.01 dB    -9.45 dB      1:04 08-Thiruchitrambalam Title Theme (Instrumental)
DR6       -1.01 dB    -9.33 dB      2:04 09-Text Message (Instrumental)
DR4       -1.01 dB    -7.00 dB      1:11 10-Coffee Shop (Instrumental)
DR5       -1.01 dB    -8.36 dB      1:39 11-Anusha Rejects Pazham (Instrumental)
DR6       -1.01 dB    -7.99 dB      0:38 12-Senior Pazham (Instrumental)
DR5       -1.01 dB    -8.84 dB      0:51 13-Shobana Insulted (Instrumental)
DR5       -1.01 dB    -8.79 dB      3:06 14-Mothers Death (Instrumental)
DR5       -1.01 dB    -7.73 dB      1:36 15-Fathers Stroke (Instrumental)
DR5       -1.01 dB    -7.17 dB      1:20 16-Thiru Helps his Dad (Instrumental)
DR5       -1.01 dB    -8.48 dB      1:09 17-Dysfunctional Home (Instrumental)
DR5       -1.01 dB    -6.73 dB      1:22 18-Pazham and Ranjini (Instrumental)
DR4       -1.01 dB    -8.60 dB      0:31 19-Pazham Proposes to Shobana (Instrumental)
DR7       -1.01 dB    -9.04 dB      0:58 20-What is Love (Instrumental)
DR5       -1.01 dB    -8.26 dB      1:01 21-Shobana Leaves (Instrumental)
DR4       -1.01 dB    -8.28 dB      2:25 22-Pazham and Shobana Separated (Instrumental)
DR5       -1.01 dB    -7.47 dB      0:33 23-Pazham Rejected (Instrumental)
DR5       -1.01 dB    -8.78 dB      2:57 24-Pazham Realises her Love (Instrumental)
DR5       -1.01 dB    -7.40 dB      1:35 25-Thaangaadha Baaram (Instrumental)
DR5       -1.01 dB    -9.67 dB      1:29 26-Soulmates Unite (Instrumental)
DR3       -0.52 dB    -5.48 dB      4:19 01-Thaai Kelavi
DR4       -0.55 dB    -6.99 dB      4:50 02-Megham Karukatha
DR5       -1.04 dB    -7.92 dB      2:22 05-Mayakkama Kalakkama
DR5       -0.99 dB    -8.05 dB      3:43 06-Kanneer Sindha
DR5       -1.04 dB    -7.69 dB      2:53 04-Thenmozhi
--------------------------------------------------------------------------------

Number of tracks:  26
Official DR value: DR5

Samplerate:        48000 Hz
Channels:          2
Bits per sample:   24
Bitrate:           1728 kbps
Codec:             FLAC
================================================================================
~Desihires.com.