Tu Jhoothi Main Makkaar (Hindi) [2023] (T-Series Music)

[Hi-Res] [24-Bit 44.0 kHz] Tu Jhoothi Main Makkaar (Hindi) [2023] (T-Series Music) 2023

No permission to download
Tu Jhoothi Main Makkaar (Hindi) [2023] (T-Series Music)



Album / Movie : Tu Jhoothi Main Makkaar [Hindi] (Original Motion Picture Soundtrack) - EP [2023] (Zee Music)
Music / Composer : Pritam
Year Released: 2023
Label: © 2023 T-Series Music.
Language: Hindi
Ripper Note: Pritam MUSiCAL🔥 Enjoy AUTHENTiC___HIRES QUALiTY 🔥. Only on DHR 🔥. Stay away from fakes 🤬. Get it for free ✌️☮️ F*ck ALAC :alien:

Tracklist :
1 - Tere Pyaar Mein - Pritam, Arijit Singh & Nikhita Gandhi
2 - Pyaar Hota Kayi Baar Hai - Pritam, Arijit Singh & Charan
3 - O Bedardeya - Pritam & Arijit Singh
4 - Show Me the Thumka - Pritam, Sunidhi Chauhan & Shashwat Singh
5 - Jaadui - Pritam & Jubin Nautiyal
6 - Maine Pi Rakhi Hai - Pritam, Shreya Ghoshal & Divya Kumar

Spek :


Quality Check log :
Code:
foobar2000 1.6.4 / Dynamic Range Meter 1.1.1
log date: 2023-03-30 08:22:10

--------------------------------------------------------------------------------
Analyzed: Pritam & Arijit Singh / Tu Jhoothi Main Makkaar (Original Motion Picture Soundtrack) (1)
          Pritam & Jubin Nautiyal / Tu Jhoothi Main Makkaar (Original Motion Picture Soundtrack) (2)
          Pritam, Arijit Singh & Charan / Tu Jhoothi Main Makkaar (Original Motion Picture Soundtrack) (3)
          Pritam, Arijit Singh & Nikhita Gandhi / Tu Jhoothi Main Makkaar (Original Motion Picture Soundtrack) (4)
          Pritam, Shreya Ghoshal & Divya Kumar / Tu Jhoothi Main Makkaar (Original Motion Picture Soundtrack) (5)
          Pritam, Sunidhi Chauhan & Shashwat Singh / Tu Jhoothi Main Makkaar (Original Motion Picture Soundtrack) (6)
--------------------------------------------------------------------------------

DR         Peak         RMS     Duration Track
--------------------------------------------------------------------------------
DR7       -0.02 dB    -9.11 dB      5:13 03-O Bedardeya
DR6        0.00 dB    -7.78 dB      3:42 05-Jaadui
DR6        0.00 dB    -6.98 dB      3:36 02-Pyaar Hota Kayi Baar Hai
DR5        0.00 dB    -6.06 dB      4:26 01-Tere Pyaar Mein
DR5        0.00 dB    -6.55 dB      4:08 06-Maine Pi Rakhi Hai
DR5        0.00 dB    -6.01 dB      3:56 04-Show Me the Thumka
--------------------------------------------------------------------------------

Number of tracks:  6
Official DR value: DR6

Samplerate:        44100 Hz
Channels:          2
Bits per sample:   24
Bitrate:           1773 kbps
Codec:             FLAC
================================================================================
~Desihires.com