Bhediya (Hindi) [2022] (Zee Music)

[CD Quality] [FLAC] Bhediya (Hindi) [2022] (Zee Music) 2022

No permission to download
Bhediya (Hindi) [2022] (Zee Music)



Album / Movie : Bhediya (Hindi) [2022] (Original Motion Picture Soundtrack) - EP
Music / Composer : Sachin-Jigar & Amitabh Bhattacharya
Year Released: 2022
Label: © 2022 Zee Music Company.
Language: Hindi
Ripper Note: FiRST 0N N3T🔥. Sachin-Jigar Musical 🔥. Enjoy AUTHENTiC___CD QUALiTY 🔥. Only on DHR 🔥.

Tracklist :
1 - Thumkeshwari - Sachin-Jigar, Rashmeet Kaur, Ash King & Divya Kumar
2 - Apna Bana Le - Sachin-Jigar & Arijit Singh
3 - Jungle Mein Kaand - Sachin-Jigar, Vishal Dadlani, Sukhwinder Singh & Siddharth Basrur
4 - Baaki Sab Theek - Sachin Sanghvi, Jigar Saraiya & Amitabh Bhattacharya

Spek :


Quality Check log :
Code:
foobar2000 1.6.12 / Dynamic Range Meter 1.1.1
log date: 2022-11-24 22:19:42

--------------------------------------------------------------------------------
Analyzed: Sachin Sanghvi, Jigar Saraiya & Amitabh Bhattacharya / Bhediya (Original Motion Picture Soundtrack) (1)
          Sachin-Jigar & Arijit Singh / Bhediya (Original Motion Picture Soundtrack) (2)
          Sachin-Jigar, Rashmeet Kaur, Ash King & Divya Kumar / Bhediya (Original Motion Picture Soundtrack) (3)
          Sachin-Jigar, Vishal Dadlani, Sukhwinder Singh & Siddharth Basrur / Bhediya (Original Motion Picture Soundtrack) (4)
--------------------------------------------------------------------------------

DR         Peak         RMS     Duration Track
--------------------------------------------------------------------------------
DR5        0.00 dB    -6.92 dB      3:20 04-Baaki Sab Theek
DR4        0.00 dB    -5.82 dB      4:22 02-Apna Bana Le
DR6        0.00 dB    -7.17 dB      2:43 01-Thumkeshwari
DR5        0.00 dB    -6.40 dB      2:47 03-Jungle Mein Kaand
--------------------------------------------------------------------------------

Number of tracks:  4
Official DR value: DR5

Samplerate:        44100 Hz
Channels:          2
Bits per sample:   16
Bitrate:           1017 kbps
Codec:             FLAC
================================================================================
~Desihires.com