God Father (Telugu) [2022] (SaReGaMa)

[CD Quality] [FLAC] God Father (Telugu) [2022] (SaReGaMa) 2022

No permission to download
God Father (Telugu) [2022] (SaReGaMa)

Cover.jpg

Album / Movie : God Father (Telugu) (Original Motion Picture Soundtrack) - EP
Music / Composer : Thaman S.
Year Released: 2022

Label: © 2022 SaReGaMa.
Language: Telugu
Ripper Note: Thaman S. Musical 🔥. Enjoy True CDQ 🔥. MaxX Quality 🔥

Tracklist :
1 - Thaar Maar Thakkar Maar - Shreya Ghoshal
2 - Najabhaja - Prudhvi Chandra
3 - God Father Theme - Thaman S
4 - Blast Baby - Blaaze
5 - Padara Sainika - Sreerama Chandra
6 - Annayya - Vaishnavi Kovvuri


Spek :

02. Najabhaja.flac.png

Quality Check log :
Code:
foobar2000 1.6.12 / Dynamic Range Meter 1.1.1
log date: 2022-10-09 15:22:36

--------------------------------------------------------------------------------
Analyzed: Blaaze / God Father (Original Motion Picture Soundtrack) (1)
          Prudhvi Chandra / God Father (Original Motion Picture Soundtrack) (2)
          Shreya Ghoshal / God Father (Original Motion Picture Soundtrack) (3)
          Sreerama Chandra / God Father (Original Motion Picture Soundtrack) (4)
          Thaman S / God Father (Original Motion Picture Soundtrack) (5)
          Vaishnavi Kovvuri / God Father (Original Motion Picture Soundtrack) (6)
--------------------------------------------------------------------------------

DR         Peak         RMS     Duration Track
--------------------------------------------------------------------------------
DR4        0.00 dB    -5.35 dB      3:39 04-Blast Baby
DR7        0.00 dB    -7.73 dB      3:18 02-Najabhaja
DR5        0.00 dB    -6.82 dB      4:28 01-Thaar Maar Thakkar Maar
DR5        0.00 dB    -6.81 dB      4:09 05-Padara Sainika
DR5        0.00 dB    -6.84 dB      2:46 03-God Father Theme
DR5        0.00 dB    -7.30 dB      3:00 06-Annayya
--------------------------------------------------------------------------------

Number of tracks:  6
Official DR value: DR5

Samplerate:        44100 Hz
Channels:          2
Bits per sample:   16
Bitrate:           781 kbps
Codec:             FLAC
================================================================================
~Desihires.com.