Pasalapoodi Veerababu (Telugu) [2022] (Sony Music)

[Hi-Res] [24-Bit 48.0 kHz] Pasalapoodi Veerababu (Telugu) [2022] (Sony Music) 2022

No permission to download
Pasalapoodi Veerababu (Telugu) [2022] (Sony Music)

Cover.jpg

Album / Movie : Pasalapoodi Veerababu (Telugu) (Original Motion Picture Soundtrack) - EP
Music / Composer : Yuvanshankar Raja
Year Released: 2022

Label: © 2022 Sony Music.
Language: Telugu
Ripper Note: Yuvanshankar Raja Musical 🔥. Enjoy True UnTOUCHED HRQ 🔥

Tracklist :
1 - Ganjai Poovu - Yuvanshankar Raja
2 - Aakasam Adhiri Pada - Yuvanshankar Raja
3 - Manase Manihaarame - Yuvanshankar Raja
4 - Aakasam Maaruthalli - Yuvanshankar Raja


Spek :

01 - Ganjai Poovu.flac.png

Quality Check log :
Code:
foobar2000 1.6.4 / Dynamic Range Meter 1.1.1
log date: 2022-10-09 17:47:38

--------------------------------------------------------------------------------
Analyzed: Yuvanshankar Raja / Pasalapoodi Veerababu
--------------------------------------------------------------------------------

DR         Peak         RMS     Duration Track
--------------------------------------------------------------------------------
DR8       -1.00 dB   -11.08 dB      3:58 01-Ganjai Poovu
DR9       -1.00 dB   -11.61 dB      4:08 02-Aakasam Adhiri Pada
DR8       -1.00 dB   -10.76 dB      3:50 03-Manase Manihaarame
DR9       -0.30 dB   -10.60 dB      1:48 04-Aakasam Maaruthalli
--------------------------------------------------------------------------------

Number of tracks:  4
Official DR value: DR9

Samplerate:        48000 Hz
Channels:          2
Bits per sample:   24
Bitrate:           1663 kbps
Codec:             FLAC
================================================================================
~Desihires.com.