Sita Ramam (Original Background Score) [2022] (Sony Music)

[Hi-Res] [24-Bit 48.0 kHz] Sita Ramam (Original Background Score) [2022] (Sony Music) 2022

No permission to download
Sita Ramam (Original Background Score) [2022] (Sony Music)

Cover.jpg

Album / Movie : Sita Ramam (Original Background Score) [Tamil]
Music / Composer : Vishal Chandrashekhar
Year Released: 2022

Label: © 2022 Sony Music.
Language: OST/Original Background Score
Ripper Note: Vishal Chandrashekhar Scores 🔥. Enjoy True HRQ 🔥.

Tracklist :
1 - PoK Theme (Background Score) - Vishal Chandrashekhar
2 - Land of The Free (Afreen's Theme) (Background Score) - Vishal Chandrashekhar
3 - One Month One Million (Background Score) - Vishal Chandrashekhar
4 - Noor Jahan Palace (Background Score) - Vishal Chandrashekhar
5 - Lt. Ram Madras Regiment 1965 (Background Score) - Vishal Chandrashekhar
6 - 312 LoC Theme (Background Score) - Vishal Chandrashekhar
7 - Mujahideen Shootout (Background Score) - Vishal Chandrashekhar
8 - Ansari's Speech (Background Score) - Vishal Chandrashekhar
9 - Agarta Burns (Background Score) - Vishal Chandrashekhar
10 - Humanity Wins (Background Score) - Vishal Chandrashekhar
11 - Naming Amrutha (Background Score) - Vishal Chandrashekhar
12 - A Bag Full of Letters (Background Score) - Vishal Chandrashekhar
13 - Radhika's Letter (Background Score) - Vishal Chandrashekhar
14 - First Letter From Sita (Background Score) - Vishal Chandrashekhar
15 - Train to Delhi (Background Score) - Vishal Chandrashekhar
16 - Sita Mahalakshmi (Background Score) - Vishal Chandrashekhar
17 - Mirrors (Background Score) - Vishal Chandrashekhar
18 - Vishnu Sharma Intro (Background Score) - Vishal Chandrashekhar
19 - Austin Magic Show (Background Score) - Vishal Chandrashekhar
20 - Let's Move to the Next Act (Background Score) - Vishal Chandrashekhar
21 - Kurukshetram (Background Score) - Vishal Chandrashekhar
22 - Swayamvaram (Background Score) - Vishal Chandrashekhar
23 - Subramanyam (Background Score) - Vishal Chandrashekhar
24 - Sita is A Dream (Background Score) - Vishal Chandrashekhar
25 - Oman Crisis (Background Score) - Vishal Chandrashekhar
26 - Journey of A Lifetime (Background Score) - Vishal Chandrashekhar
27 - I'll Be Waiting For You Sita (Background Score) - Vishal Chandrashekhar
28 - Marthandam The Photojournalist (Background Score) - Vishal Chandrashekhar
29 - This is The Truth (Background Score) - Vishal Chandrashekhar
30 - I Came Back For You (Background Score) - Vishal Chandrashekhar
31 - Come Back Safe (Background Score) - Vishal Chandrashekhar
32 - I Am Lt. Ram's Wife (Background Score) - Vishal Chandrashekhar
33 - I Am Not A Traitor (Background Score) - Vishal Chandrashekhar
34 - The Last Letter (Background Score) - Vishal Chandrashekhar
35 - Thank You for The Letter (Background Score) - Vishal Chandrashekhar

Spek :

01 - PoK Theme (Background Score).flac.png

Quality Check log :
Code:
foobar2000 1.6.4 / Dynamic Range Meter 1.1.1
log date: 2022-09-25 11:20:02

--------------------------------------------------------------------------------
Analyzed: Vishal Chandrashekhar / Sita Ramam (Original Background Score)
--------------------------------------------------------------------------------

DR         Peak         RMS     Duration Track
--------------------------------------------------------------------------------
DR10      -0.11 dB   -14.14 dB      4:15 01-PoK Theme (Background Score)
DR9       -0.10 dB   -10.84 dB      1:40 02-Land of The Free (Afreen's Theme) (Background Score)
DR9       -0.10 dB   -12.98 dB      1:04 03-One Month One Million (Background Score)
DR9       -0.10 dB   -12.83 dB      0:26 04-Noor Jahan Palace (Background Score)
DR13      -0.59 dB   -17.94 dB      1:05 05-Lt. Ram Madras Regiment 1965 (Background Score)
DR8        0.00 dB   -11.39 dB      0:52 06-312 LoC Theme (Background Score)
DR7       -0.10 dB    -9.45 dB      0:51 07-Mujahideen Shootout (Background Score)
DR8       -0.10 dB    -9.85 dB      0:58 08-Ansari's Speech (Background Score)
DR8       -0.10 dB   -10.25 dB      1:13 09-Agarta Burns (Background Score)
DR9       -0.11 dB   -11.57 dB      0:57 10-Humanity Wins (Background Score)
DR10      -4.09 dB   -19.90 dB      0:38 11-Naming Amrutha (Background Score)
DR12      -5.69 dB   -20.19 dB      0:27 12-A Bag Full of Letters (Background Score)
DR9       -1.71 dB   -15.21 dB      0:53 13-Radhika's Letter (Background Score)
DR12      -0.12 dB   -16.47 dB      0:51 14-First Letter From Sita (Background Score)
DR12      -5.73 dB   -20.90 dB      0:26 15-Train to Delhi (Background Score)
DR12       0.00 dB   -15.33 dB      1:58 16-Sita Mahalakshmi (Background Score)
DR13      -0.42 dB   -16.05 dB      1:05 17-Mirrors (Background Score)
DR9        0.00 dB   -13.07 dB      1:34 18-Vishnu Sharma Intro (Background Score)
DR12      -0.13 dB   -15.47 dB      2:07 19-Austin Magic Show (Background Score)
DR13      -3.16 dB   -19.16 dB      0:57 20-Let's Move to the Next Act (Background Score)
DR10      -0.46 dB   -14.30 dB      0:21 21-Kurukshetram (Background Score)
DR8       -0.10 dB    -9.96 dB      0:51 22-Swayamvaram (Background Score)
DR14      -0.14 dB   -16.79 dB      0:57 23-Subramanyam (Background Score)
DR12      -4.60 dB   -19.30 dB      0:29 24-Sita is A Dream (Background Score)
DR10      -0.11 dB   -12.99 dB      1:15 25-Oman Crisis (Background Score)
DR14      -0.12 dB   -18.97 dB      2:02 26-Journey of A Lifetime (Background Score)
DR12      -1.58 dB   -21.53 dB      1:15 27-I'll Be Waiting For You Sita (Background Score)
DR18      -0.11 dB   -20.81 dB      1:03 28-Marthandam The Photojournalist (Background Score)
DR11      -0.03 dB   -13.70 dB      2:01 29-This is The Truth (Background Score)
DR9       -7.73 dB   -21.51 dB      0:46 30-I Came Back For You (Background Score)
DR10      -0.10 dB   -13.68 dB      1:27 31-Come Back Safe (Background Score)
DR8       -8.72 dB   -20.91 dB      0:25 32-I Am Lt. Ram's Wife (Background Score)
DR11      -0.15 dB   -15.81 dB      1:06 33-I Am Not A Traitor (Background Score)
DR10      -0.13 dB   -14.14 dB      0:38 34-The Last Letter (Background Score)
DR12      -0.10 dB   -15.64 dB      1:17 35-Thank You for The Letter (Background Score)
--------------------------------------------------------------------------------

Number of tracks:  35
Official DR value: DR11

Samplerate:        48000 Hz
Channels:          2
Bits per sample:   24
Bitrate:           1484 kbps
Codec:             FLAC
================================================================================
~Desihires.com